top of page

Real World Life Skills Teachers Group

Public·2 members
Theodore Allen
Theodore Allen

Star Trek Ds9 Season 1 Complete Torrent


Star Trek Deep Space 9 Complete Collection Seasons 1-7 General Information:Official Site: -trek-deep-space-nine Season 1: 20 EpisodesSeason 2: 26 EpisodesSeason 3: 26 EpisodesSeason 4: 26 EpisodesSeason 5: 26 EpisodesSeason 6: 26 EpisodesSeason 7: 26 EpisodesSize............: 100MB per episode; 200MB For 2 part episodes (16.8GB Total)imDB............: imDB Rating.....: 8.1/10Plot............:The stable wormhole discovered by the Deep Space Nine crew is known to the Bajoran peopleas the Celestial Temple of their Prophets. Sisko, as discoverer of the wormhole and itsinhabitants, is therefore the Emissary of Bajoran prophesy. The wormhole's other end is inthe Gamma Quadrant, halfway around the galaxy from Bajor. That section of space is dominatedby the malevolent Dominion. The Dominion is led by the Changelings, the race of shapeshiftersto which Odo belongs. As of the beginning of the sixth season, Cardassia has joined the Dominion,and together they are waging war on the Federation and their Klingon allies. The war is quicklybecoming the most costly war ever for the Federation, and the Deep Space Nine crew must fightto protect their way of life.Container : MPEG-4 (.mp4)Video Average:Format/Info : Advanced Video CodecFormat profile : [email protected] Format settings, CABAC : YesFormat settings, ReFrames : 5 framesCodec ID : avc1Codec ID/Info : Advanced Video CodingDuration : 45mn 30sBit rate mode : VariableBit rate : 243 KbpsMaximum bit rate : 1 881 KbpsWidth : 576 pixelsHeight : 432 pixelsDisplay aspect ratio : 4:3Frame rate mode : ConstantFrame rate : 23.976 fpsColor space : YUVChroma subsampling : 4:2:0Bit depth : 8 bitsScan type : ProgressiveBits/(Pixel*Frame) : 0.041Stream size : 78.6 MiB (83%)Writing library : x264 core 80 r1373 4322f63Encoding settings : cabac=1 / ref=5 / deblock=1:0:0 / analyse=0x3:0x133 / me=esa /subme=8 / psy=1 / psy_rd=1.0:0.0 / mixed_ref=1 / me_range=24 / chroma_me=1 / trellis=1 / 8x8dct=1 /cqm=0 / deadzone=21,11 / fast_pskip=0 / chroma_qp_offset=-2 / threads=4 / sliced_threads=0 / nr=0 /decimate=1 / mbaff=0 / constrained_intra=0 / bframes=3 / b_pyramid=0 / b_adapt=1 / b_bias=0 /direct=3 / wpredb=1 / wpredp=2 / keyint=250 / keyint_min=25 / scenecut=40 / rc_lookahead=40 /rc=abr / mbtree=1 / bitrate=243 / ratetol=1.0 / qcomp=0.60 / qpmin=10 / qpmax=51 / qpstep=4 /ip_ratio=1.40 / aq=1:1.00Audio Average:Format/Info : Advanced Audio CodecFormat version : Version 4Format profile : LCFormat settings, SBR : YesFormat settings, PS : NoCodec ID : 40Duration : 45mn 30sBit rate mode : VariableBit rate : 48.0 KbpsMaximum bit rate : 56.4 KbpsChannel(s) : 2 channelsChannel positions : Front: L RSampling rate : 48.0 KHzStream size : 15.6 MiB (16%)Screens/Thumbs:Torrent and transcoding done by Mattlb0619 of h33t.com.Thanks goto original scene releasers VF and SFM for 350(700)MB XViD DVDRips.Please leave comments on quality and seed to(at least) 1:1.




Star Trek Ds9 Season 1 Complete Torrent


Download File: https://www.google.com/url?q=https%3A%2F%2Fjinyurl.com%2F2uaKio&sa=D&sntz=1&usg=AOvVaw2JFA1ANJLwnJtdVoTN2zIT



The Region 2 UK-only version had a limited run and at time of writing is no longer in production and was somewhat more sturdier executed. Only 1,000 were made, and each is individually numbered, making it a rare collector's item. This version comprises the original blue "hard case" Region 2 releases housed in a hard cardboard box with a lid. The individual box-sets for each season were re-released in new "slimline" packaging on Region 2, however these have not been grouped together for a complete box-set in Europe. Nonetheless, with the advent of the Star Trek: Deep Space Nine - The Full Journey collection in 2011, Region 2 became better served, years before Region 1 was.


About

Welcome to the group! You can connect with other members, ge...
bottom of page